منتدى برامج نت

 
العودة   منتدى برامج نت > منتديات الأفلام والسينما > منتدى عرض أفلام الأنمي والكارتون
صفحة برامج نت الرسمية على الموقع التواصل الاجتماعي فيسبوك
 

منتدى عرض أفلام الأنمي والكارتون منتدى يختص في الأنيمي وتحميل أفلام كارتون












في حال وجود أي مواضيع او ردود مُخالفة من قبل الأعضاء ، يرجى الإبلاغ عنها فورا باستخدام أيقونة تقرير عن مشاركة ( تقرير عن مشاركة مخالفة ) ، و الموجودة أسفل كل مشاركة .


فيلم أناستازيا بجودة بلوراي تورنت Anastasia BDRip

منتدى عرض أفلام الأنمي والكارتون


إضافة رد
 
أدوات الموضوع انواع عرض الموضوع
قديم 06-11-2011, 08:42 PM   #1
الرموثي
عضو فعال
 
تاريخ التسجيل: Mar 2008
الدولة: السعودية
الجنس : ذكر
الهوايات: اجهزة
الوظيفة: موظف
المشاركات: 132
معدل تقييم المستوى: 82
الرموثي is on a distinguished road

افتراضي فيلم أناستازيا مدبلج عربي بجودة بلوراي تورنت Anastasia BDRip

.


Movies : Animation : HD 720p : Arabic


مدبلج عربي







cast
Meg Ryan ... Anastasia (voice)
John Cusack ... Dimitri (voice)
Kelsey Grammer ... Vladimir (voice)
Christopher Lloyd ... Rasputin (voice)
Hank Azaria ... Bartok (voice)
Bernadette Peters ... Sophie (voice)
Kirsten Dunst ... Young Anastasia (voice)
Angela Lansbury...The Dowager Empress (voice)
Rick Jones ... Czar Nicholas / Servant / Revolutionary Soldier / Ticket Agent (voice)
Andrea Martin ... Phlegmenkoff /(voice)
Glenn Walker Harris Jr. ... Young (voice)
Debra Mooney ... Actress (voice)
Arthur Malet ... Travelling Man /(voice)
Charity James ... Anastasia Impostor (voice)
Liz Callaway ... Anastasia (singing voice)



IMDB:
http://www.imdb.com/title/tt0118617/
IMDb Rating:6.7/10(19,998 ) votes)
Genre:Animation | Adventure | Drama
Language: Arabic




Video Information
Format : MPEG-4 Visual
Duration : 1h 30mn
Bit rate : 2 586 Kbps
Display aspect ratio : 2.35:1
Frame rate : 25.025 fps
Resolution : 24 bits
Colorimetry : 4:2:0
Scan type : Progressive
Bits/(Pixel*Frame) : 0.148
Stream size : 1.63 GiB (89%)
Writing library : XviD 58
Resolution:1280 x 544


Audio Information:
Format : AC-3
Codec ID : 2000
Duration : 1h 30mn
Bit rate mode : Constant
Bit rate : 320 Kbps
Channel(s) : 6 channels
Channel positions : Front: L C R, Surround: L R, LFE
Sampling rate : 44.1 KHz
Stream size : 206 MiB (11%)





























للتحميل


http://www.4shared.com/file/ccdYWzRs..._720p_BDR.html








.

التعديل الأخير تم بواسطة الرموثي ; 06-11-2011 الساعة 08:50 PM سبب آخر: تعديل العنوان
الرموثي غير متواجد حالياً   رد مع اقتباس
قديم 06-12-2011, 01:18 AM   #2
kakachix
Banned
 
تاريخ التسجيل: Aug 2010
المشاركات: 10,438
معدل تقييم المستوى: 0
kakachix has a reputation beyond reputekakachix has a reputation beyond reputekakachix has a reputation beyond reputekakachix has a reputation beyond reputekakachix has a reputation beyond reputekakachix has a reputation beyond reputekakachix has a reputation beyond reputekakachix has a reputation beyond reputekakachix has a reputation beyond reputekakachix has a reputation beyond reputekakachix has a reputation beyond repute

افتراضي

Grasias amigo
kakachix غير متواجد حالياً   رد مع اقتباس
قديم 06-30-2011, 01:27 PM   #3
khaled emad
عضو فعال
 
الصورة الرمزية khaled emad
 
تاريخ التسجيل: Jun 2011
الدولة: الإسكندرية
العمر: 25
الجنس : ذكر
الهوايات: تصميم وبرمجه
الوظيفة: مصمم ومطور مواقع الويب
المشاركات: 121
معدل تقييم المستوى: 44
khaled emad is on a distinguished road

افتراضي

that's great
khaled emad غير متواجد حالياً   رد مع اقتباس
قديم 07-01-2011, 02:49 PM   #4
sanabis2000
عضو فعال
 
تاريخ التسجيل: Dec 2010
الدولة: السعودية
الجنس : ذكر
الهوايات: القراءة
الوظيفة: معلم
المشاركات: 86
معدل تقييم المستوى: 49
sanabis2000 is on a distinguished road

افتراضي

شكرا لك
جاري التحميل
sanabis2000 غير متواجد حالياً   رد مع اقتباس
قديم 07-05-2011, 02:15 PM   #5
shaadyelmasry
عضو فعال
 
الصورة الرمزية shaadyelmasry
 
تاريخ التسجيل: Jul 2011
الجنس : ذكر
المشاركات: 118
معدل تقييم المستوى: 43
shaadyelmasry is on a distinguished road

افتراضي

شكرااااااااااااااااااااااااااااااااااااااااااااااا اااااااااااااا يانجم
shaadyelmasry غير متواجد حالياً   رد مع اقتباس
إضافة رد

مواقع النشر (المفضلة)

أدوات الموضوع
انواع عرض الموضوع

تعليمات المشاركة
لا تستطيع إضافة مواضيع جديدة
لا تستطيع الرد على المواضيع
لا تستطيع إرفاق ملفات
لا تستطيع تعديل مشاركاتك

BB code is متاحة
كود [IMG] متاحة
كود HTML معطلة



الساعة الآن 08:42 AM.


Designed by bramjnet.com, TranZ By Almuhajir
Powered by vBulletin®, Copyright ©2000 - 2014, Jelsoft Enterprises Ltd.